ExtraTorrents - The Largest Bittorent System Login   |    Register
Most searched
Hot torrents
Movie Torrents
View Torrent Info: Reign of the Supermen 2019 1080p WEB-DL DD5 1 H264-CMRG TGx
View Torrent Info: How to Train Your Dragon 3 2019 720p HDCAM-1XBET
View Torrent Info: Petta (2019) 720p Telugu DVDScr x264 MP3 1 4GB
View Torrent Info: Brexit (2019) 720p AMZN WEB-DL 750MB - MkvCage
View Torrent Info: Root Cause 2019 1080p WEBRip X264-INFLATE
View Torrent Info: Rust Creek 2018 1080p WEB-DL DD5 1 H264-CMRG TGx
View Torrent Info: State Like Sleep (2018)  WEBRip   720p   YTS   YIFY
View Torrent Info: The Dragon Unleashed (2019)  BluRay   720p   YTS   YIFY
View Torrent Info: The Dark Kingdom (2019)  WEBRip   720p   YTS   YIFY
View Torrent Info: The Brawler 2019 SweSub 1080p x264-Justiso
Hot torrents
TV Torrents
View Torrent Info: Drunk History S06E01 WEB x264-TBS
View Torrent Info: The Flash 2014 S05E10 720p HDTV x264-SVA rartv
View Torrent Info: NCIS S16E12 HDTV x264-SVA rartv
View Torrent Info: Silent Witness S22E04 720p HDTV x264-MTB
View Torrent Info: Murdoch Mysteries S12E11 WEBRip x264-TBS  eztv
View Torrent Info: Silent Witness S22E03 Lift Up Your Hearts Part One 720p iP WEB-DL AAC2 0 x264 TGx
View Torrent Info: True Detective S03E02 Kiss Tomorrow Goodbye 720p REPACK AMZN WEB-DL DDP5 1 H 264-NTb TGx
View Torrent Info: True Detective S03E01 The Great War and Modern Memory 720p AMZN WEB-DL DDP5 1 H 264-NTb TGx
View Torrent Info: Family Guy S17E11 720p WEB x264-TBS
View Torrent Info: Ray Donovan S06E12 WEB XviD-AVID TGx
ExtraTorrents > Categories > Anime torrents > Subbed torrents


Browse Anime torrents

Mob Psycho 100 II 01 (1080p WEBRip x265 HEVC 10bit AAC 2.0 theincognito) [UTR]


Download torrent: Mob Psycho 100 II 01 (1080p WEBRip x265 HEVC 10bit AAC 2.0 theincognito) [UTR] Magnet link Mob Psycho 100 II 01 (1080p WEBRip x265 HEVC 10bit AAC 2.0 theincognito) [UTR] Mob Psycho 100 II 01 (1080p WEBRip x265 HEVC 10bit AAC 2.0 theincognito) [UTR] | if not working, try instead: Magnet Link
Info hash: 31A32850CE926511A9F334CEBDB652BA48EEF36F
Category: Categories > Anime torrents > Subbed torrents
Trackers:
1    View all torrent trackers >
Health:
 seeds: 10 ,  leechers: 1
Torrent language: Japanese
Total Size: 372.4 MB
Uploader:
Torrent added: 2019-01-08 12:05

Download Mob Psycho 100 II 01 (1080p WEBRip x265 HEVC 10bit AAC 2.0 theincognito) [UTR] torrent if not working, try downloading torrent using Download Mob Psycho 100 II 01 (1080p WEBRip x265 HEVC 10bit AAC 2.0 theincognito) [UTR] via Magnet Link




Torrent Description








Media Information

Media Information

Code:

General
Format : Matroska
Format version : Version 4 / Version 2
File size : 372 MiB
Duration : 24 min 10 s
Overall bit rate : 2 154 kb/s
Encoded date : UTC 2019-01-07 18:38:56
Writing application : mkvmerge v30.1.0 ('Forever And More') 64-bit
Writing library : libebml v1.3.6 + libmatroska v1.4.9

Video
ID : 1
Format : HEVC
Format/Info : High Efficiency Video Coding
Format profile : Main [email protected]@Main
Codec ID : V_MPEGH/ISO/HEVC
Duration : 24 min 10 s
Bit rate : 2 024 kb/s
Width : 1 920 pixels
Height : 1 080 pixels
Display aspect ratio : 16:9
Frame rate mode : Constant
Frame rate : 23.976 (24000/1001) FPS
Color space : YUV
Chroma subsampling : 4:2:0
Bit depth : 10 bits
Bits/(Pixel*Frame) : 0.041
Stream size : 350 MiB (94%)
Writing library : x265 3.0_RC+4-8aebc58efe5c:[Windows][MSVC 1920][64 bit] 10bit
Encoding settings : cpuid=1111039 / frame-threads=3 / numa-pools=8 / wpp / no-pmode / no-pme / no-psnr / ssim / log-level=2 / csv / csv-log-level=0 / input-csp=1 / input-res=1920x1080 / interlace=0 / total-frames=34766 / level-idc=0 / high-tier=1 / uhd-bd=0 / ref=4 / no-allow-non-conformance / no-repeat-headers / annexb / no-aud / no-hrd / info / hash=0 / no-temporal-layers / open-gop / min-keyint=23 / keyint=250 / gop-lookahead=0 / bframes=8 / b-adapt=2 / b-pyramid / bframe-bias=0 / rc-lookahead=50 / lookahead-slices=4 / scenecut=40 / radl=0 / no-splice / no-intra-refresh / ctu=64 / min-cu-size=8 / no-rect / no-amp / max-tu-size=32 / tu-inter-depth=1 / tu-intra-depth=1 / limit-tu=0 / rdoq-level=2 / dynamic-rd=0.00 / ssim-rd / signhide / no-tskip / nr-intra=0 / nr-inter=0 / no-constrained-intra / strong-intra-smoothing / max-merge=3 / limit-refs=3 / limit-modes / me=3 / subme=4 / merange=57 / temporal-mvp / weightp / no-weightb / no-analyze-src-pics / deblock=0:0 / sao / no-sao-non-deblock / rd=4 / no-early-skip / rskip / no-fast-intra / no-tskip-fast / no-cu-lossless / no-b-intra / no-splitrd-skip / rdpenalty=0 / psy-rd=0.00 / psy-rdoq=1.00 / no-rd-refine / no-lossless / cbqpoffs=0 / crqpoffs=0 / rc=crf / crf=23.0 / qcomp=0.60 / qpstep=4 / stats-write=0 / stats-read=0 / ipratio=1.40 / pbratio=1.30 / aq-mode=3 / aq-strength=1.00 / cutree / zone-count=0 / no-strict-cbr / qg-size=32 / no-rc-grain / qpmax=69 / qpmin=0 / no-const-vbv / sar=0 / overscan=0 / videoformat=5 / range=0 / colorprim=2 / transfer=2 / colormatrix=1 / chromaloc=0 / display-window=0 / max-cll=0,0 / min-luma=0 / max-luma=1023 / log2-max-poc-lsb=8 / vui-timing-info / vui-hrd-info / slices=1 / no-opt-qp-pps / no-opt-ref-list-length-pps / no-multi-pass-opt-rps / scenecut-bias=0.05 / no-opt-cu-delta-qp / aq-motion / no-hdr / no-hdr-opt / no-dhdr10-opt / no-idr-recovery-sei / analysis-reuse-level=5 / scale-factor=0 / refine-intra=0 / refine-inter=0 / refine-mv=0 / refine-ctu-distortion=0 / no-limit-sao / ctu-info=0 / no-lowpass-dct / refine-analysis-type=0 / copy-pic=1 / max-ausize-factor=1.0 / no-dynamic-refine / no-single-sei / no-hevc-aq / qp-adaptation-range=1.00
Default : Yes
Forced : No
Color range : Limited
Matrix coefficients : BT.709

Audio
ID : 2
Format : AAC
Format/Info : Advanced Audio Codec
Format profile : LC
Codec ID : A_AAC
Duration : 24 min 9 s
Bit rate : 128 kb/s
Channel(s) : 2 channels
Channel positions : Front: L R
Sampling rate : 44.1 kHz
Frame rate : 43.066 FPS (1024 spf)
Compression mode : Lossy
Delay relative to video : 10 ms
Stream size : 22.1 MiB (6%)
Language : English
Default : No
Forced : No

Subtitle
ID : 3
Format : ASS
Codec ID : S_TEXT/ASS
Codec ID/Info : Advanced Sub Station Alpha
Duration : 24 min 9 s
Bit rate : 180 b/s
Count of elements : 432
Compression mode : Lossless
Stream size : 32.0 KiB (0%)
Language : English
Default : Yes
Forced : No



Source Information

Code:

Release:
[Erai-raws] Mob Psycho 100 II - 01 [1080p][Multiple Subtitle]





Download Mob Psycho 100 II 01 (1080p WEBRip x265 HEVC 10bit AAC 2.0 theincognito) [UTR] torrent




Home - Browse Torrents ExtraTorrents is in compliance with copyrights
2006-2018 ExtraTorrents